[Login] or [Signup]
Login
Username:
Password:
[Signup]
[Recover Account]


Poll


You must be logged in to view polls



Torrent Details For "The Fellowship of the Ring 2001 Extended 1080p BluRay x264 AAC 5.1-Hon3y"

The Fellowship of the Ring 2001 Extended 1080p BluRay x264 AAC 5.1-Hon3y

Download this torrent | Magnet Download
Health:
Seeds: 0
Leechers: 10
Completed:
Last Checked: 12-12-2017 13:00:36
External Torrent
Update Stats
Download Magnet


Poster


Watch-Free-HD     Download

Details
Name:The Fellowship of the Ring 2001 Extended 1080p BluRay x264 AAC 5.1-Hon3y
Description:
The Fellowship of the Ring 2001 Extended 1080p BluRay x264 AAC 5.1-Hon3y

Source: BD50 @ FGT

Format                      : Matroska
Format version              : Version 4 / Version 2
File size                   : 3.68 GiB
Duration                    : 3 h 48 min
Overall bit rate            : 2 306 kb/s
Movie name                  : [email protected] @ Hon3y


Video
ID                          : 1
Format                      : AVC
Format/Info                 : Advanced Video Codec
Format profile              : [email protected]
Format settings, CABAC      : Yes
Format settings, ReFrames   : 5 frames
Codec ID                    : V_MPEG4/ISO/AVC
Duration                    : 3 h 48 min
Bit rate                    : 2 050 kb/s
Width                       : 1 920 pixels
Height                      : 800 pixels
Display aspect ratio        : 2.40:1
Frame rate mode             : Constant
Frame rate                  : 23.976 (24000/1001) FPS


Audio
ID                          : 2
Format                      : AAC
Format/Info                 : Advanced Audio Codec
Format profile              : LC
Codec ID                    : A_AAC
Duration                    : 3 h 48 min
Bit rate                    : 254 kb/s
Channel(s)                  : 6 channels
Channel positions           : Front: L C R, Side: L R, LFE
Sampling rate               : 48.0 kHz
Frame rate                  : 46.875 FPS (1024 spf)
Compression mode            : Lossy
Delay relative to video     : 9 ms
Stream size                 : 415 MiB (11%)
Language                    : English
Default                     : Yes
Forced                      : Yes

Text
ID                          : 3
Format                      : UTF-8
Codec ID                    : S_TEXT/UTF8
Codec ID/Info               : UTF-8 Plain Text
Duration                    : 3 h 20 min
Bit rate                    : 37 b/s
Count of elements           : 1722
Stream size                 : 54.6 KiB (0%)
Language                    : English
Default                     : Yes
Forced                      : No

Menu
00:00:00.000                : : 1. Prologue: One Ring to Rule Them All...
00:07:36.790                : : 2. Concerning Hobbits
00:10:35.552                : : 3. The Shire
00:15:39.856                : : 4. Very Old Friends
00:19:58.489                : : 5. A Long-expected Party
00:25:32.614                : : 6. Farewell Dear Bilbo
00:29:57.379                : : 7. Keep It Secret, Keep It Safe
00:32:10.679                : : 8. The Account of Isildur
00:34:51.798                : : 9. At The Green Dragon
00:36:18.176                : :10. The Shadow of the Past
00:45:04.160                : :11. The Passing of the Elves
00:46:44.301                : :12. Saruman the White
00:51:21.412                : :13. A Short Cut to Mushrooms
00:55:12.434                : :14. Bucklebury Ferry
00:57:30.072                : :15. At the Sign of The Prancing Pony
01:03:31.516                : :16. The Nazgul
01:07:16.115                : :17. The Midgewater Marshes
01:08:53.588                : :18. The Spoiling of Isengard
01:10:35.940                : :19. A Knife in the Dark
01:15:15.386                : :20. The Caverns of Isengard
01:17:46.620                : :21. Flight to the Ford
01:24:11.546                : :22. Rivendell
01:26:12.501                : :23. Many Meetings
01:29:41.585                : :24. The Fate of the Ring
01:33:14.672                : :25. The Sword That Was Broken
01:35:54.082                : :26. The Evenstar
01:37:32.972                : :27. The Council of Elrond
01:45:45.000                : :28. Gilraen's Memorial
01:46:59.826                : :29. Bilbo's Gifts
01:48:43.221                : :30. The Departure of the Fellowship
01:50:00.631                : :31. The Ring Goes South
01:53:06.442                : :32. The Pass of Caradhras
01:57:52.728                : :33. Moria
02:04:18.113                : :34. A Journey in the Dark
02:10:48.461                : :35. Balin's Tomb
02:20:13.192                : :36. The Bridge of Khazad-Dum
02:29:54.648                : :37. Lothlorien
02:33:07.299                : :38. Caras Galadhorn
02:40:24.319                : :39. The Mirror of Galadriel
02:46:04.325                : :40. The Fighting Uruk-Hai
02:47:45.676                : :41. Farewell to Lorien
02:53:08.207                : :42. The Great River
02:58:00.457                : :43. Parth Galen
03:04:28.219                : :44. The Breaking of the Fellowship
03:11:44.155                : :45. The Departure of Boromir
03:14:26.484                : :46. The Road Goes Ever On
03:20:44.653                : :47. Credits
03:28:25.155                : :48. Official Fan Club Credits





       
Category:Movies > 1080P Bluray
Lang:English  English
Total Size:3.68 GB
Info Hash:e7be9f8f64d5bf3d3079247e05f877f11be3fa71
Added By:Hon3y
Date Added:21-06-2017 16:34:35
Views:144
Hits:49

Download Torrent

Ratings:Not Yet Rated (Log in to rate it)


Tracker:
udp://tracker.coppersurfer.tk:6969/announce


File List: 


Comments

No comments still posted

Powered by 10 Hamsters v2-svn -|- Page Generated In 0.612443 secs.
-|- RSS FEED
Theme By: Nikkbu